Beatles Flac


flac: 16 MB: 09. Reply Delete. dalmar6677. Strawberry Fields Forever 02. The Beatles - The Singles Collection (1982/2019) [24bit FLAC] [DJ] ETTV torrent download - Free Download of The Beatles - The Singles Collection (1982/2019) [24bit FLAC] [DJ] only on ettvdl. The Beatles - FLAC Stereo and Mono Box Sets + Extras Audio (FLAC). xxxx - Complete Ed Sullivan Shows 1964-1970 2CD+2DVD Misterclaudel The Beatles - xx. ) - американский блюзмен, гитарист. For over 40 years, Roberta Flack has been singing her way into the hearts of global audiences. Scott G April 14, 2017 at 9:40 PM. For years, it was just another album in the band's catalog, overshadowed by the album that followed it, 1967's Sgt. Download The Beatles - The Beatles (White Album) (Super Deluxe Edition) (1968/2018) FLAC or any other file from Music category. ’ And so I came back. The Beatles Bible is run for the love of anything and everything to do with The Beatles. A full-length Beatles remix/mash-up album. MP3: 7DB9557A92DA792F578BA86463C7210632577881 Flac. peppers Album as 1 track and tracks 12 and 13. 2 [FLAC] Down Under Beatles for Australia Vol. Container: flac (tracks) Quality: Hi-Fi, lossless audio Sample Rate: 44100 kHz / 16 bit, Stereo Source: Digital download Album Artist: The Beatles Album Name: The Beatles 1967 - 1970 (Remastered) Genre: Rock Release Date: 2015-12-24 www publisher: hd24bit. It features programmes fronted by Gary Barlow, John Bishop, Martin Freeman, Guy Garvey, Dave Grohl, Giles Martin, Cerys Matthews, Paul Merton and many more hosting shows along with Radio 2 presenters. by admin · March 20, 2014. The Beatles – Help! (1965/2009) FLAC (tracks) 24 bit/44,1 kHz | Time – 33:52 minutes | 471 MB. Glass Onion 06. -The Beatles - A Hard Day's Night. Beatles - The Beatles 1967-1970 (1973) Japan SHM-CD UICY-76984/5 [2014] Tamanho (Size): 664 MB Formato (File): FLAC (from SHM) About SHM Download: Mega Disc 1 01. Her first big hit "The First Time Ever I Saw Your Face," recorded in 1969, caught the attention of. I Want You PersonnelHelen Merrill - VocalsMasahiko Sato - Piano, ArrangerYasuo Arakawa -. Beatles fan for over a quarter of a century. Label: EMI ‎– 14C 062-04173/74, EMI ‎– 2J 162-04173, EMI ‎– 2J 162-04174 Type: 2 x Vinyl, LP, Album, Reissue, Stereo. I downloaded the flac after reading the accolades here. Pepper - flac. 1 Release Date: 2009-09-19 Band: Eric Clapton Date: 1975-08-09 (Saturday) Venue: Frost Amphitheatre - Stanford University. BITRATE: 320 Kbps. Blackbird 14. com ArtWork: not included Size. The original Flac file is not affected when you create the Apple version. 3 Abbey Road N. Wild Honey Pie 08. Here is the link to both the Beatles in 24 Bit FLAC and mono for all of you who havent experienced them in this format. FILE "The Beatles - Beatles VI (US Mono) (1965) [T 2358]. 1 - The Beat Years 196. Lossless Albums » FLAC 16 bit » The Beatles - Abbey Road (Super Deluxe Edition) (2019) FLAC Genres: FLAC 16 bit / Rock 26-09-2019, 17:27 2 009 Music_land All music The Beatles. The Beatles - With Sgt. Beatles fans were on a rabid wild goose chase trying to crack the code. [Album] The Beatles – The Beatles (White Album) (50th Anniversary) (2018/FLAC Hi-Res + MP3/RAR) 簡単無料ダウンロード zip rar 漫画 MP3 FLAC 24bit Lossless AAC MUSIC JAPAN Download Free. The Beatles 1963-10-30 Stockholm, Sweden FLAC/TV/Vinyl Rip. 3 Abbey Road N. Container: flac (tracks) Quality: Hi-Fi, lossless audio Sample Rate: 44100 kHz / 16 bit, Stereo Source: Digital download Album Artist: The Beatles Album Name: The Beatles 1967 - 1970 (Remastered) Genre: Rock Release Date: 2015-12-24 www publisher: hd24bit. FILE "The Beatles - Beatles VI (US Mono) (1965) [T 2358]. Tracklist:. (Pop/Rock, Psychedelic Rock) The Beatles Hey Jude (The Beatles Again) 1970/2019, FLAC. FLAC - The Beatles "I Hope We Passed The Audition FLAC - The Beatles "Live at the Hollywood Bowl - D FLAC - The Beatles "A Hard Day's Night - Deluxe Ed FLAC - The Beatles "Please Please Me - Deluxe Edit FLAC - The Beatles "The Forgotten Abbey Road Sessi FLAC - The Beatles "Don't Forget The Apples When Y. com/c/SuperColie ♫♪ Thank. Strawberry Fields Forever 02. June 3, 1994. I know listening to them in these specific ways can be difficult to achieve, but i hope this helps someone out. Flac part 1 Flac part 2 Source used: All Things Must Pass (2010 40th Anniversary remaster) John Lennon/Plastic Ono Band (2010 remaster) McCartney (2011 remaster) Photographs – The Best of Ringo Starr (2007) Working Class Hero – The Definitive John Lennon (2005) flac --> wav --> editing in Audacity and Goldwave --> flac encoding via TLH lv8. The Beatles Mono Box Set 2009 plus Japanese Issues Mono Masters. 20 GB WebSite: Album Preview. com Saludos a todos los Beatlemaniacos del mundo. Performer: The Beatles Album: The U. The Beatles will celebrate Abbey Road’s anniversary with a suite of beautifully presented packages to be released worldwide on September 27 by Apple Corps Ltd. The Beatles - 20 Greatest Hits (2001) FLAC. 3 Abbey Road N. Tracklist:. Here, There, and Everywhere 7. flac: chris70-343: 26. Her first big hit "The First Time Ever I Saw Your Face," recorded in 1969, caught the attention of. To share this torrent use the code below and insert it into comments, status messages, forum posts or your signature. xxxx - The Complete BBC Tapes Misterclaudel (16CD). Happy holidays from the Beatles: As of 12:01 a. The Beatles Beatles FLAC Discography Remastered Uploaded: 2014-02-17 08:25 GMT By: jmwreck Seeders: 62 Leechers: 10 Info Hash. & MP3 320 KBPS. -The Beatles - Ticket To Ride. The Beatles Anthology (Now streaming as of April 2016). A Day In The Life 07. The Beatles Complete Discography 320 kbps [vtgarcia]. Don't Pass Me By 17. Here is the link to both the Beatles in 24 Bit FLAC and mono for all of you who havent experienced them in this format. FILE "The Beatles - Beatles VI (US Mono) (1965) [T 2358]. Albums Label: Capitol Records. The Beatles Discography (16 CD FLAC Remastered 2009) torrent download, InfoHash 634D46B4FF9C0D237B4AEA7DFAF1E22CEE3152E0. La mejor y la Super colección de la Discografia de The Beatles, solo aqui, descarga por MEDIAFIRE y RECUERDA comentar, no les cuesta nada. The Beatles - FLAC Discography Remastered. /Capitol/UMe. xxxx - The Lost Album (2017, 8 CD Boxset Deluxe Edition) FLAC The Beatles - xx. 20 GB WebSite: Album Preview. cue) Bitrate. US LP Introducing the Beatles, et. Title Of Album: Beatles Year: 2004 Genre: Rock Source: CD Playing Time: 01:13:57 Total Size: 418,21 MB Quality: FLAC + Cue + M3U8 + Log (Cover: Front Back CD) 01- A Hard Day' s Night 03:22 02- You've Got To Hide Your Love Away 03:45 03- Mother Nature's Son 03:01 04- With A Litlle Help From My Friends 02:44 05- Nowhere Man 03:11 06- Blackbird 02:19. The Beatles Flac download on RapidTrend. 88 KB: OK: The Beatles - White Album - 1968-2018 (6CD Super Deluxe Box Set) [FLAC]. The Beatles 1963-10-30 Stockholm, Sweden FLAC/TV/Vinyl Rip. com Saludos a todos los Beatlemaniacos del mundo. CD-standard is 44. With A Little Help From My Friends 05. In this 2012 FLAC UPDATED CDRip collection of Various Beatles Hits that i selected includes all of The Number 1's From the U. Artist: The Beatles Title: The Beatles[The White Album] Year: 1968 Genre: Rock Label: Dr. Container: flac (tracks) Quality: Hi-Fi, lossless audio Sample Rate: 44100 kHz / 16 bit, Stereo Source: Digital download Album Artist: The Beatles Album Name: The Beatles 1967 - 1970 (Remastered) Genre: Rock Release Date: 2015-12-24 www publisher: hd24bit. (Album Rock) [CD] The Beatles - Abbey Road (3CD 50th Anniversary Super Deluxe Edition) - 1969 (2019), FLAC (tracks+. Try out sample tracks to experience High-Resolution Audio. Quality: FLAC 16 bit / 44. The Beatles have released 14 re-mastered albums in 24-bit FLAC on a themed USB drive. First off, several facts need to be explained: although released in May 1970, this was not their final album, but largely recorded in early 1969, way before Abbey Road. Penny Lane 03. FLAC or wav files are no more difficult to handle than mp3 files are. Pbthal, spectrum analysis shows FLAC for this EP to be remarkably similar to his red wax LP FLAC, and indeed it sounds like it (see also remarks for pbthal’s EP FLAC for “Chains”). Gepost door Unknown op 23:25 3 opmerkingen: Dit e-mailen Dit bloggen!. Flac part 1 Flac part 2 Source used: All Things Must Pass (2010 40th Anniversary remaster) John Lennon/Plastic Ono Band (2010 remaster) McCartney (2011 remaster) Photographs – The Best of Ringo Starr (2007) Working Class Hero – The Definitive John Lennon (2005) flac --> wav --> editing in Audacity and Goldwave --> flac encoding via TLH lv8. noipod4me wrote: So I loaded the FLAC files from The Beatles 24bit remaster onto the FUZE and it sees all the songs, but as soon as it starts, it just stops and goes to the next song, until the end of the playlist and it just sits paused at track1 just like it would as if it HAD played all the tunes. The Beatles - In My Life. TODAY IN BEATLES’ HISTORY: 1963 – The BBC aired “Pop Go The Beatles. The Beatles – Help! (1965/2009) FLAC (tracks) 24 bit/44,1 kHz | Time – 33:52 minutes | 471 MB. HTTP download also available at fast speeds. The Beatles In Mono (2009) (MP3/Flac) Juanma14_9. The Beatles - Lossless - The Beatles Rockband Rubber Soul (Volume Nine Stereo Dolby Digital)(Beatcomber PCS 329) (1970) (FLAC) The Beatles - Lossless - The Beatles Something Extra (1970) (FLAC) The Beatles - Lossless - Beatles VI (NZ-UK Export 24 96 Needledrop)(Qcumbaman) (1970) (FLAC). 01 (2 cds). The_Beatles-Live_At_The_BBC-(3758940)-REISSUE_REMASTERED-3LP-FLAC-2018-WRE FLAC (tracks) 16 bit/ 44,1kHz | Time - 02:16:45 minutes | 2. xxxx - The Complete BBC Tapes Misterclaudel (16CD). 20 GB WebSite: Album Preview. Penny Lane 03. ly/2YK7JaB VA - 80 Smash Hits of the 80s (2018) FLAC. After doing all of that in about one hour, I backed up everything I completed to a back-up hard drive that connects via USB. 94) Beatles and Liverpool Rail Day Trip from London (From $227. A collection of Pop Go The Beatles and Saturday Club performances. Author Ken McNab Sheds Light on the Beatles' Tumultuous Final Year Al Di Meola's Beatles Tribute Balances Exploration With Familiarity Nils Lofgren Recalls the Genesis of Ringo's First All-Starr Band. Uploaded 02-17 2014, Size 3. Stereo Box Set by The Beatles (2009, CD Flac) - Release Date: 2009 Genre: Rock Audio Codec: Flac Rip Type: tracks +. 8tracks radio. I did nothing regarding the pre-emphasis. The Beatles Anthology is made up of three different parts, each its own double album, and the whole set is a treasure. 4 GB The Beatles - 2019 - Abbey Road (Super Deluxe Edition) (3CD) [FLAC] (miok) 793 MB The Beatles - FLAC Discography Remastered 3. Lowe & Colin Hanton, Liverpool, 1958) That´Ll Be the Day (With J. Discussion in 'Music Corner' started by ServingTheMusic, Feb 29, 2016. Full Movies. -The Rolling Stones - Heart Of Stone. Ob-La-Di, Ob-La-Da. FLAC files are included and one could use Audacity to remix these back to monaural. The group announced the news in a 35-second video. List to Beatles bootleg downloads (updated) Bootleg Network. The Beatles – 1962-1966 / 1967-1970 Released: 2010 Genre: Rock Bitrate: FLAC & MP3 320 KBPS. 134 - Wilson Pickett - In The Midnight Hour (1965). 1 surround, and Dolby. A collection of Pop Go The Beatles and Saturday Club performances. The Beatles In Mono (2009) (MP3/Flac) Juanma14_9. flac; The Beatles&Billy Preston - Get Back[FLAC格式] get back - The Beatles / Billy Preston[FLAC格式] The Beatles-Hey Jude[FLAC格式] The Beatles-A Hard Day's Night[FLAC格式] The Beatles - Here Comes The Sun The Inner Light (Transition)[FLAC格式] The Beatles - Come Together Dear Prudence Cry Baby Cry. Reply Delete. (Album Rock) [CD] The Beatles - Abbey Road (3CD 50th Anniversary Super Deluxe Edition) - 1969 (2019), FLAC (tracks+. and in stereo for the U. Tracklist: 01 MC Intro. /Capitol/UMe. flac" WAVE TRACK 01 AUDIO TITLE "Kansas City" INDEX 01 00:00:00 TRACK 02 AUDIO TITLE "Eight Days A Week" INDEX 01 02:37:09 TRACK 03 AUDIO TITLE "You Like Me Too Much" INDEX 01 05:23:59 TRACK 04 AUDIO TITLE "Bad Boy" INDEX 01 08:02:11 TRACK 05 AUDIO TITLE "I Don't Want To Spoil The Party. just go to vimeo and type in the compleat beatles remake Jun 2, 2020 17:59:24 GMT. cue) Bitrate. Give it 4 out of 5 for the effort, 2 out of 5 for the remastering and conversion to stereo (for the binaural masters) which in some cases is a complete failure -- just get the "Beatles in Mono" set done more recently for the real thing. MOTB Release: 0088 16/44. 38 MB The only Beatles album to occasion negative, even hostile reviews, there are few other rock records as controversial as Let It Be. 10 - November 1964 / June 1965 (Hd Remastered Edition) The Beatles 2018 From $4. Favor de Reportar Links Rotos o Equivocados. Ask Me Why 7. Browse GeorgeHarrison. 7 June To 10 June 1964 Hong Kong [FLAC] Oh, Mistake [FLAC] Songs The Beatles Gave Away - Deluxe Edition (Purp The Alternate Versions Vol. Download The Beatles - The Lost Album II (2019) (Bootleg) FLAC/MP3 or any other file from Music category. Dear Prudence 05. 07-12-2020 03:24 PM by 8010969. The Beatles : The Beatles: 1962-1966 CD 2 discs (1993) FREE Shipping, Save £s 4. In 2012, the Elektra Acetate was shared on torrent sites, blogs and on forums around the net, this is the earliest version of Glyn John's first Get Back compilation from early 1969. Lineage: Orig. 1 kHz/24-bit "lossless" FLAC format. Artist: The Beatles Title: The Beatles[The White Album] Year: 1968 Genre: Rock Label: Dr. noipod4me wrote: So I loaded the FLAC files from The Beatles 24bit remaster onto the FUZE and it sees all the songs, but as soon as it starts, it just stops and goes to the next song, until the end of the playlist and it just sits paused at track1 just like it would as if it HAD played all the tunes. The set was issued on 9 September 2009, along with the remastered mono recordings and companion The Beatles in Mono were also released, along with The. flac 137 - The Beatles - Eleanor Rigby (1966). The Beatles Box [Vinyl 24bit-192khz] 14 Albums 1963-1988 36 comments. Tracklist: 01 – Help! 02 – The Night Before 03 – You’ve Got To Hide Your Love Away 04 – I Need You 05 – Another Girl 06 – You’re Going To Lose That Girl 07 – Ticket to Ride 08 – Act Naturally 09 – It’s Only Love 10 – You. La mejor y la Super colección de la Discografia de The Beatles, solo aqui, descarga por MEDIAFIRE y RECUERDA comentar, no les cuesta nada. Author Ken McNab Sheds Light on the Beatles' Tumultuous Final Year Al Di Meola's Beatles Tribute Balances Exploration With Familiarity Nils Lofgren Recalls the Genesis of Ringo's First All-Starr Band. cc has been informing visitors about topics such as Full Album Download, Free MP3 Music Download Skull and CD Album. Ob-La-Di, Ob-La-Da. Tracklist: 01 – Two Of Us 02 – Dig A Pony 03 – Across The Universe 04 – I Me Mine 05 – Dig It 06 – Let It Be 07 – Maggie Mae 08 – I’ve Got A Feeling 09 – One After 909 10 – The Long And Winding Road 11 – For You Blue 12. Taj Mahal заявил, что Фергюсон входит "в пятерку величайших гитаристов в. The Word 5. The original Flac file is not affected when you create the Apple version. FLAC (lossles) Format; The Beatles - The Beatles [White Album] [Super Deluxe Edition] (1968/2018) [FLAC] Pokaż wyniki od 1 do 1 z 1 Wątek: The Beatles - The Beatles. 1 kHz (Tracks) Artist: The Beatles Title: The Beginnings Of The Beatles: From Hamburg To London 1961-1962 Released: 2013 Style: Pop Rock RAR Size: 593 Mb. White Room 02. So, I thought I would put up something representing the original Get Back album concept, but which version? As. The Beatles: Fanthology (2xCD) Yellow Dog: Neil Young: Hard Rock Calling (2xCD) 2009-06-27: Crystal Cat Records: The Beatles: No. To share this torrent use the code below and insert it into comments, status messages, forum posts or your signature. Now with these FLAC files the high quality 24bit sound can be heard by Beatles fans. my vimeo name is joe anthony Jun 2, 2020 17:49:33 GMT lastjedi : i left in the audio commentary and the george martin interviews however. (2000)[FLAC]. While most average Beatles fans will be more excited about the mp3s that are included on the Beatles USB memory stick, serious audiophile Beatles fans will be thrilled that 24bit FLAC (better than CD) files are included as well. Join thousands of satisfied visitors who discovered Zip Rar, Zip Files for Free and Beyonce New Album. I've been collecting their live audio recordings for approximately the same time, found some great stuff and also awful stuff (sonically speaking), and through this blog I'm sharing the great stuff with you. It features programmes fronted by Gary Barlow, John Bishop, Martin Freeman, Guy Garvey, Dave Grohl, Giles Martin, Cerys Matthews, Paul Merton and many more hosting shows along with Radio 2 presenters. Songs of the Beatles is a 1981 (see 1981 in music) album by American jazz singer Sarah Vaughan. Browse GeorgeHarrison. 17) Independent Beatles Day Trip to Liverpool from London by Train (From $217. List to Beatles bootleg downloads (updated) Bootleg Network. flac" WAVE TRACK 01 AUDIO TITLE "Kansas City" INDEX 01 00:00:00 TRACK 02 AUDIO TITLE "Eight Days A Week" INDEX 01 02:37:09 TRACK 03 AUDIO TITLE "You Like Me Too Much" INDEX 01 05:23:59 TRACK 04 AUDIO TITLE "Bad Boy" INDEX 01 08:02:11 TRACK 05 AUDIO TITLE "I Don't Want To Spoil The Party. It is kept by Roger Stormo, who has been associated with the Norwegian Beatles fan club, "Norwegian Wood", since 1980. Read facts, see the documentaries and listen through the amazing artist catalogue. 07-12-2020 03:24 PM by 8010969. Ob-La-Di, Ob-La-Da 07. Another idea that is important to me is fixing the appalling "set the same volume level for all tracks" , which doesn't take into account the subtle volume transients of an album that audio engineers spend hours working on. The Beatles - The Beatles download free. 1 Release Date: 2009-09-19 Band: Eric Clapton Date: 1975-08-09 (Saturday) Venue: Frost Amphitheatre - Stanford University. The Beatles - xx. FLAC (lossles) Format; The Beatles - The Beatles [White Album] [Super Deluxe Edition] (1968/2018) [FLAC] Pokaż wyniki od 1 do 1 z 1 Wątek: The Beatles - The Beatles. Vinyl, compared to Blue Box vinyl, the same. to The Beatles - Discography 1963-2017 [FLAC] Music Lossless 1 year zooqle. The Beatles Bible is run for the love of anything and everything to do with The Beatles. 17 -===- D:\Torrent Downloads\Music\Beatles Deluxe - 11 Let It Be\Disc 3 - acetate 1\17 Miss Ann-Kansas City-Lawdy Miss Clawdy (acetate 1. The Beatles - The Singles Collection (1982/2019) [24bit FLAC] [DJ] ETTV torrent download - Free Download of The Beatles - The Singles Collection (1982/2019) [24bit FLAC] [DJ] only on ettvdl. Pbthal, spectrum analysis shows FLAC for this EP to be remarkably similar to his red wax LP FLAC, and indeed it sounds like it (see also remarks for pbthal’s EP FLAC for “Chains”). Ob-La-Di, Ob-La-Da. So, I thought I would put up something representing the original Get Back album concept, but which version? As. With A Little Help From My Friends 05. 38 MB The only Beatles album to occasion negative, even hostile reviews, there are few other rock records as controversial as Let It Be. Browse GeorgeHarrison. the beatles, rock, bootleg, compilation, flac A bootleg 'deluxe edition' of the Beatles' critically acclaimed (but a tad overrated) 1967 album Sgt. and in stereo for the U. Back In The U. The Beatles - 1962-1966 / 1967-1970 Released: 2010 Genre: Rock Bitrate: FLAC & MP3 320 KBPS Tracklist: Disc 1: 1. Norwegian Wood 6. the Minneapolis portion is an average/fair AUD, LA is very good SBD, Cow Palace is a very good/exc. The Beatles - Help! (1965/2009) FLAC (tracks) 24 bit/44,1 kHz | Time - 33:52 minutes | 471 MB. Stereo Box Set by The Beatles (2009, CD Flac) - Release Date: 2009 Genre: Rock Audio Codec: Flac Rip Type: tracks +. With John Lennon, Paul McCartney, George Harrison, and Ringo Starr, they became widely The Beatles - [Discography][FLAC] ~Jooker99. 1 Disc One - Stereo (00 Трeклист: Single 01. cue) Bitrate. 8tracks radio. 01 GiB, ULed by insinuendo, 2, 0 Audio (FLAC). 1 - The Beat Years 196. flac: 15 MB: 08. The Beatles - In My Life. Then I put the little Beatles USB back in the Apple it came in, placed all original documentation in the box and put it away. Foram 185 semanas, com o término em 24 de julho de 2012 (na véspera da Olimpíada de Londres). The Beatles - Record 1 03. Okay, maybe not stop them, because the Beatles have been one of the world's most heavily bootlegged. Espero cualquier aporte a mi correo: [email protected] Download The Beatles - The Beatles (White Album) (Super Deluxe Edition) (1968/2018) FLAC or any other file from Music category. Wild Honey Pie 08. 1 MCH (tracks) 24-bit/96 kHz | Time - 81:03 minutes | 4,48 GB Blu-Ray rip in Stereo & Multichannel Surround Sound | Artwork: Full scans The Beatles '1' was originally released in 2000 and quickly became the fastest selling album of all time. Label: EMI ‎– 14C 062-04173/74, EMI ‎– 2J 162-04173, EMI ‎– 2J 162-04174 Type: 2 x Vinyl, LP, Album, Reissue, Stereo. xxxx - Complete Ed Sullivan Shows 1964-1970 2CD+2DVD Misterclaudel The Beatles - xx. For years, it was just another album in the band's catalog, overshadowed by the album that followed it, 1967's Sgt. While My Guitar Gently Weeps 10. 1 kHz Tracklist: The Beatles - / Box Set, CD Flac, Lossless, KaRaMusic. 3 Abbey Road N. ” Warren Brown Art. Made in US. The only Beatles album to occasion negative, even hostile reviews, there are few other rock records as controversial as Let It Be. Qualità: lossless (FLAC) Durata: 3 giorni 13 ore 45 minuti 28 secondi The Beatles sono stati un gruppo musicale rock inglese, originario di Liverpool e attivo dal 1960 al 1970. 16-bit FLAC Preview BBC Archives Vol. With a Little Help From My Friends. 11: 1,876: Lossless Audio Bootlegs : Paul McCartney - 1990-03-07 - Tokyo, Japan. A Day In The Life 07. Reply Delete. The Beatles's channel, the place to watch all videos, playlists, and live streams by The Beatles on dailymotion. 8tracks radio. Sepultura - Chaos A. I've been collecting their live audio recordings for approximately the same time, found some great stuff and also awful stuff (sonically speaking), and through this blog I'm sharing the great stuff with you. FLAC or wav files are no more difficult to handle than mp3 files are. If you recall the summer of '76 (sympathies if you d. TRACK LISTING: Sgt Pepper's Lonely Hearts Club Band. RE: Anyone heard Apple's 24 bit Beatles FLAC rips from the USB? Posted by Tony Lauck (A) on December 14, 2009 at 13:48:18. 20 GB WebSite: Album Preview. The Beatles : The Beatles: 1962-1966 CD 2 discs (1993) FREE Shipping, Save £s 4. /Capitol/UMe. The sound was to be analogue, to reflect that of the Beatles, so simple and at the same time magical. flac: 15 MB: 08. The Beatles – Let It Be (1970/2009) FLAC (tracks) 24 bit/44,1 kHz | Time – 35:07 minutes | 402 MB. Pepper’s Lonely Hearts Club Band (1967) [50th Anniversary Super Deluxe Edition, 6 Disc, 2017]. Tracklist: 01 – Two Of Us 02 – Dig A Pony 03 – Across The Universe 04 – I Me Mine 05 – Dig It 06 – Let It Be 07 – Maggie Mae 08 – I’ve Got A Feeling 09 – One After 909 10 – The Long And Winding Road 11 – For You Blue 12. my vimeo name is joe anthony Jun 2, 2020 17:49:33 GMT lastjedi : i left in the audio commentary and the george martin interviews however. The Beatles Bible is run for the love of anything and everything to do with The Beatles. Sometimes Flac and High-Res playback was not supported or there were limitations on device storage that made its use problematic. Descargar Discografias Completas por Mega en 1 Link Gratis Mp3 Flac 320 Kbps. by admin · March 20, 2014. For years, it was just another album in the band's catalog, overshadowed by the album that followed it, 1967's Sgt. I'm So Tired 13. Veterans Stadium. flac" WAVE TRACK 01 AUDIO TITLE "Kansas City" INDEX 01 00:00:00 TRACK 02 AUDIO TITLE "Eight Days A Week" INDEX 01 02:37:09 TRACK 03 AUDIO TITLE "You Like Me Too Much" INDEX 01 05:23:59 TRACK 04 AUDIO TITLE "Bad Boy" INDEX 01 08:02:11 TRACK 05 AUDIO TITLE "I Don't Want To Spoil The Party. Beatles fan for over a quarter of a century. FLAC can reduce the size of an uncompressed audio file (wav) without compromising the sound quality. [Verse 1] (G) D C G In the town where I was born Em Am C D Lived a man who sailed to sea G D C G And he told us of his life Em Am C D In the. The Beatles - The Beatles (White Album) (50th Anniversary) Released: 2018 Genre: Rock, Pop Bitrate: FLAC 24bit 96khz 5. Qualità: lossless (FLAC) Durata: 3 giorni 13 ore 45 minuti 28 secondi The Beatles sono stati un gruppo musicale rock inglese, originario di Liverpool e attivo dal 1960 al 1970. Issued in both stereo and mono for the U. Lucy In The Sky With Diamonds 06. Radar Brothers joined Merge Records in 2002 for the release of their critically revered third LP And The Surrounding Mountains. Her first big hit "The First Time Ever I Saw Your Face," recorded in 1969, caught the attention of. The Beatles - The Lost Album 8CD - FLAC. Listen to Beatles Radio internet radio online for free on radio. WLOF - 101. A Subtle Buoyancy Of Pulse, the first recording by the Tape-beatles (1988), was painstakingly remastered and re-sequenced some 10 years after its initial release. If you've learned something new about the band and wish to show your appreciation, why not make a small donation via PayPal? It'll help with server costs, research material etc. To enable you to sample on your Walkman, the same track is available in High-Resolution Audio and a widely used compressed audio format. 1968 - The Beatles [White Album] CD2 1969 - Abbey Road 1969 - Yellow Submarine 1970 - Let It Be 2009 - Past Masters I 2009 - Past Masters II It sounds flawless on short listen. Browse GeorgeHarrison. It is kept by Roger Stormo, who has been associated with the Norwegian Beatles fan club, "Norwegian Wood", since 1980. 24bit FLAC (The Beatles USB) Jonny Kaine General November 6, 2009 November 6, 2009 As you may have heard, The Beatles music is finally coming out digitally but not in the way most people assumed it would (as downloads on iTunes & AmazonMP3 ) but instead on this Apple (Beatles Apple, not Mac Apple) themed Beatles USB stick. A number of Radar Brothers albums were concurrently released and distributed in Europe by Chemikal Underground (Mogwai, Roky Erickson, The Delgados). 1 kHz/24-bit “lossless” FLAC format. With A Little Help From My Friends 05. [Verse 1] (G) D C G In the town where I was born Em Am C D Lived a man who sailed to sea G D C G And he told us of his life Em Am C D In the. 1KHz 24bit—higher than 16-bit CD quality—and 320Kbps MP3 files. -The Rolling Stones - Good Times, Bad Times. The Beatles Anthology is made up of three different parts, each its own double album, and the whole set is a treasure. So I loaded the FLAC files from The Beatles 24bit remaster onto the FUZE and it sees all the songs, but as soon as it starts, it just stops and goes to the next song, until the end of the playlist and it just sits paused at track1 just like it would as if it HAD played all the tunes. The Beatles Day By Day Sessions (1-1-1969 - 31-1-1969) 76 cd's and 38 volumes. Performer: The Beatles Album: The U. Contraseña para los. The Beatles - Lossless - The Beatles Rockband Rubber Soul (Volume Nine Stereo Dolby Digital)(Beatcomber PCS 329) (1970) (FLAC) The Beatles - Lossless - The Beatles Something Extra (1970) (FLAC) The Beatles - Lossless - Beatles VI (NZ-UK Export 24 96 Needledrop)(Qcumbaman) (1970) (FLAC). Issued in both stereo and mono for the U. Online auction sites offering Beatles items. [Album] The Beatles – Revolver Vinyl (2012. 94) Beatles and Liverpool Rail Day Trip from London (From $227. Politician. First off, several facts need to be explained: although released in May 1970, this was not their final album, but largely recorded in early 1969, way before Abbey Road. The Beatles 'Rumitape & More!' Studio Soundboard Recordings Encoded: 320 Kbps MP3 & FLAC File Format Labels: Beatles, Demos, FLAC, George Harrison, John Lennon. Featuring 27 of. flac: 15 MB: 08. I Saw Her Standing There 2. The Beatles – Let It Be (1970/2009) FLAC (tracks) 24 bit/44,1 kHz | Time – 35:07 minutes | 402 MB. The_Beatles-Live_At_The_BBC-(3758940)-REISSUE_REMASTERED-3LP-FLAC-2018-WRE FLAC (tracks) 16 bit/ 44,1kHz | Time - 02:16:45 minutes | 2. You can buy files as high as 24 bit 192khz sampling rate in flac. ) All of The Beatles music on this memory stick is available as both mp3s and FLAC, it's up to the listener to decide which version they want to listen to. Please Please Me. - stream 480 beatles playlists including the beatles, the rolling stones, and rock music from your desktop or mobile device. The set was issued on 9 September 2009, along with the remastered mono recordings and companion The Beatles in Mono were also released, along with The. HTTP download also available at fast speeds. The Beatles will celebrate Abbey Road’s anniversary with a suite of beautifully presented packages to be released worldwide on September 27 by Apple Corps Ltd. Here is a wonderful collection of The Beatles greats and includes Solo work from each of the Fab Four as well. Stereo Box Set by The Beatles (2009, CD Flac) - Release Date: 2009 Genre: Rock Audio Codec: Flac Rip Type: tracks +. Catalog #: 602537614127 Style: Rock Year: 2014 Format: FLAC (image +. If you convert a lossy audio file (mp3) to lossless file (flac) it will sound exactly the same but may be larger. BBC Radio 2 celebrated the 50th anniversary of The Beatles’ Abbey Road album with RADIO 2 BEATLES, a four-day pop-up DAB radio station. -The Rolling Stones - Time Is On My Side. Reply Delete. The Beatles: From Yesterday To Today [FLAC] 1. The Beatles - White Album - 1968-2018 (6CD Super Deluxe Box Set) [FLAC]. Lucy In The Sky With Diamonds 06. 24, the band’s music will finally be available on streaming services worldwide. The Beatles - Record 1 03. Christian Lee Hutson – Beginners (2020) [24bit FLAC] Christian Klinkenberg – Der Gletscher (2020) [24bit FLAC] Top Posts. 1 kHz (Tracks) / FLAC 24 bit / 96 kHz (Tracks) Artist: Camille Bertault Title: Le tigre Released: 2020 Style: Jazz, Vocal Jazz RAR Size: 280 Mb / 1. The Beatles were an English rock band that formed in Liverpool, in 1960. 94) Beatles and Liverpool Rail Day Trip from London (From $227. The Beatles - Lossless - The Beatles Rockband Rubber Soul (Volume Nine Stereo Dolby Digital)(Beatcomber PCS 329) (1970) (FLAC) The Beatles - Lossless - The Beatles Something Extra (1970) (FLAC) The Beatles - Lossless - Beatles VI (NZ-UK Export 24 96 Needledrop)(Qcumbaman) (1970) (FLAC). I've been collecting their live audio recordings for approximately the same time, found some great stuff and also awful stuff (sonically speaking), and through this blog I'm sharing the great stuff with you. I do like the fact that. The Beatles - Beatles For Sale - 1964 (Purple Chick Deluxe Edition 3CD) [2007, Classic Rock, FLAC] The Beatles - Beatles For Sale Vol. A Day In The Life 07. Beatles - The Beatles 1967-1970 (1973) Japan SHM-CD UICY-76984/5 [2014] Tamanho (Size): 664 MB Formato (File): FLAC (from SHM) About SHM Download: Mega Disc 1 01. by admin · March 20, 2014. flac 136 - Elton John - Your Song (1970). 20 GB WebSite: Album Preview. Author Ken McNab Sheds Light on the Beatles' Tumultuous Final Year Al Di Meola's Beatles Tribute Balances Exploration With Familiarity Nils Lofgren Recalls the Genesis of Ringo's First All-Starr Band. FLAC files are included and one could use Audacity to remix these back to monaural. The Beatles - 20 Greatest Hits (2001) FLAC. The Beatles - In My Life. The Beatles - Sgt. flac 138 - Sly & The Family Stone - Family Affair (1971). Pink Floyd - (1981-02-17) 5th Night. The Beatles: Fanthology (2xCD) Yellow Dog: Neil Young: Hard Rock Calling (2xCD) 2009-06-27: Crystal Cat Records: The Beatles: No. the beatles greatest hits. Lucy In The Sky With Diamonds 06. FLAC files are included and one could use Audacity to remix these back to monaural. 2020 : Paul Simon - The Complete Albums Collection (2013) Paul Simon - The Complete Albums Collection (2013) The Beatles - Anthology 1. Piggies 15. Pepper's Lonely Hearts Club Band (1967) [50th Anniversary Super Deluxe Edition, 6 Disc, 2017]. I chose music I had duplicates of on Vinyl, CD and FLAC files stored on my 4 TB HDD which is directly connected to my Oppo BDP-105 via USB. MP3: 7DB9557A92DA792F578BA86463C7210632577881 Flac. WLOF - 101. A Subtle Buoyancy Of Pulse, the first recording by the Tape-beatles (1988), was painstakingly remastered and re-sequenced some 10 years after its initial release. FLAC can reduce the size of an uncompressed audio file (wav) without compromising the sound quality. Browse GeorgeHarrison. rar Size: 233. Pepper's Lonely Hearts Club Band (1967) [FLAC] The Beatles - The White. The_Beatles-Live_At_The_BBC-(3758940)-REISSUE_REMASTERED-3LP-FLAC-2018-WRE FLAC (tracks) 16 bit/ 44,1kHz | Time - 02:16:45 minutes | 2. -The Beatles - She's A Woman. (2) Pbthal Die Beatles needle-drop FLAC. In My Life 10. Thankfully, in 2016, it seems like almost every device is offering hi-res audio support. lastjedi: the compleat beatles remake on vimeo. The Beatles - In My Life. I Want You PersonnelHelen Merrill - VocalsMasahiko Sato - Piano, ArrangerYasuo Arakawa -. 3 Abbey Road N. Revolver, the Beatles' seventh album, was released 50 years ago today. Oh, and if any of you is afraid of FLAC being open-source, consider that Apple released a Beatles complete works using FLAC 24 bit (a bit pricy, between 250 and 350 euros), quality higher than that of ordinary CDs. One can get the flac frontend (and EAC comes with it) for free. Lucy In The Sky With Diamonds 06. The Beatles - Anthology Outtakes (Studio FLAC) Anthology Outtakes Publisher: Beat Central Reference :CT-200411/CT-200412 Date :2004 Made In :Japan. Glass Onion 06. Comments Off on The Beatles - Abbey Road (Super Deluxe Edition) (1969/2019) [FLAC 24bit/96kHz] Blu-Ray Audio / Concert, Music Video / Hi-Res Digital Download The Beatles - Sgt. Ebbetts (German Stereo LP) DMM White Vinyl / 1 Format: FLAC tracks, lossless Playtime: 1:33:07. While My Guitar Gently Weeps 10. net) Led Zeppelin IV - Led Zeppelin IV (1971) Remastered FLAC / MP3. KOMO - News Radio 1000 AM. Audio Merchandise (67) Sites selling Beatles CDs, tapes, albums, etc. Side 1: Frank Zappa - 1967-1990 - Scrapings From The Vault (SBD/FLAC) - *(Soundboard FLAC). Download The Beatles - The Beatles (White Album) (Super Deluxe Edition) (1968/2018) FLAC or any other file from Music category. Just to menti. The Beatles 'Unforgettable Bonus CD (Remastered Edition)' (2011 Remasters Workshop : RMW 654) Soundboard Recordings Encoded: FLAC File Format & [email protected] Kbps. 1KHz 24bit—higher than 16-bit CD quality—and 320Kbps MP3 files. Pepper's Lonely Hearts Club Band. VIP Uploaded 11-28 2010, Size 11. Torrent Metasearch. cue) Hi-Res https://bit. Revolution The Beatles - Record 1 03. 94) Beatles and Liverpool Rail Day Trip from London (From $227. com The Beatles - Discography 1963-2017 [FLAC] music 3 months. Ob-La-Di, Ob-La-Da 07. com/c/SuperColie ♫♪ Thank. Pepper's Lonely Hearts Club Band (1967) [50th Anniversary Super Deluxe Edition, 6 Disc, 2017]. -The Beatles - She's A Woman. Pepper's Lonely. Artist: The Beatles Title: The Beatles[The White Album] Year: 1968 Genre: Rock Label: Dr. Listen to free internet radio, sports, music, news, talk and podcasts. Online auction sites offering Beatles items. The sound was to be analogue, to reflect that of the Beatles, so simple and at the same time magical. Politician. The Beatles - 20 Greatest Hits (2001) FLAC. If you recall the summer of '76 (sympathies if you d. ly/2YK7JaB VA - 80 Smash Hits of the 80s (2018) FLAC. 3 Abbey Road N. flac: 18 MB: 04. click for more. Artist: The Beatles Title: The Beatles[The White Album] Year: 1968 Genre: Rock Label: Dr. 06-23-2020 02:02 AM by 8010969. Lineage: Orig. Performer: The Beatles Album: The U. Penny Lane 03. Try out sample tracks to experience High-Resolution Audio. All radio streams and radio stations at one glance. and a selection of Favourites **Also i joined tracks 1 and 2 from the Sgt. The Beatles: Fanthology (2xCD) Yellow Dog: Neil Young: Hard Rock Calling (2xCD) 2009-06-27: Crystal Cat Records: The Beatles: No. Tracklist:. [Verse 1] (G) D C G In the town where I was born Em Am C D Lived a man who sailed to sea G D C G And he told us of his life Em Am C D In the. That was then paired with the Tug of War tracks that were either recorded or at least demoed *before* John was killed on December 8th, 1980. Pepper's Lonely Hearts Club Band 04. Issued in both stereo and mono for the U. I converted the flac to wav. Dear Prudence 05. The Beatles - White Album - 1968-2018 (6CD Super Deluxe Box Set) [FLAC]. click for more. -The Beatles - Ticket To Ride. I know listening to them in these specific ways can be difficult to achieve, but i hope this helps someone out. List to Beatles bootleg downloads (updated) Bootleg Network. "Silly Love Songs" was released in March 1976 on Wings' fifth studio album, Wings At The Speed Of Sound. (Album Rock) [CD] The Beatles - Abbey Road (3CD 50th Anniversary Super Deluxe Edition) - 1969 (2019), FLAC (tracks+. If you recall the summer of '76 (sympathies if you d. Good old Steve Smith even managed to dig up enough clues, probably purposefully inaccurate clues, to tell the world that there were FOUR MEMBERS! lt just had to be The Beatles!. Just to menti. The Beatles - The Beatles (White Album - Super Deluxe) (1968/2018) [24-96 FLAC,Hi-Res] 6. net) Led Zeppelin IV - Led Zeppelin IV (1971) Remastered FLAC / MP3. 1 kHz (Tracks) / FLAC 24 bit / 96 kHz (Tracks) Artist: Camille Bertault Title: Le tigre Released: 2020 Style: Jazz, Vocal Jazz RAR Size: 280 Mb / 1. Read facts, see the documentaries and listen through the amazing artist catalogue. Download The Beatles - The Beatles (White Album) (Super Deluxe Edition) (1968/2018) FLAC or any other file from Music category. Pepper's Lonely Hearts Club Band. Espero cualquier aporte a mi correo: [email protected] Tracklist: Disc 1: 1. cue) | Lossless | 28 Gb Genre: Rock, Pop ==Original Masters==. Lossless Albums » FLAC 16 bit » The Beatles - Abbey Road (Super Deluxe Edition) (2019) FLAC Genres: FLAC 16 bit / Rock 26-09-2019, 17:27 2 009 Music_land All music The Beatles. Lucy In The Sky. The album contains songs written and originally performed by The Beatles with contemporary pop/R&B arrangement. 3 Abbey Road N. Перед Вами открывается музыкальный альбом the beatles - the lost album ii вышедший в 2019 году, данная композиция насчитывает 137 треков в формате FLAC длительностью 18:26:22. -The Beatles - A Hard Day's Night. i replaced all the pics and videos. Revolver, the Beatles' seventh album, was released 50 years ago today. 1968 - The Beatles [White Album] CD2 1969 - Abbey Road 1969 - Yellow Submarine 1970 - Let It Be 2009 - Past Masters I 2009 - Past Masters II It sounds flawless on short listen. 45) Liverpool: 50-Minute Mersey River Cruise (From $14. Online, everywhere. Vinyl and FLAC, EXCELLENT. The Beatles Anthology (Now streaming as of April 2016). Title Of Album: Beatles Year: 2004 Genre: Rock Source: CD Playing Time: 01:13:57 Total Size: 418,21 MB Quality: FLAC + Cue + M3U8 + Log (Cover: Front Back CD) 01- A Hard Day' s Night 03:22 02- You've Got To Hide Your Love Away 03:45 03- Mother Nature's Son 03:01 04- With A Litlle Help From My Friends 02:44 05- Nowhere Man 03:11 06- Blackbird 02:19. flac 138 - Sly & The Family Stone - Family Affair (1971). Beatles fans were on a rabid wild goose chase trying to crack the code. Pbthal, spectrum analysis shows FLAC for this EP to be remarkably similar to his red wax LP FLAC, and indeed it sounds like it (see also remarks for pbthal’s EP FLAC for “Chains”). Comments Off on The Beatles – Abbey Road (Super Deluxe Edition) (1969/2019) [FLAC 24bit/96kHz] Blu-Ray Audio / Concert, Music Video / Hi-Res Digital Download The Beatles – Sgt. One can get the flac frontend (and EAC comes with it) for free. The Beatles – The Beatles (White Album) (50th Anniversary) Released: 2018 Genre: Rock, Pop Bitrate: FLAC 24bit 96khz 5. 1 Disc One - Stereo (00 Трeклист: Single 01. [Album] The Beatles – The Beatles (White Album) (50th Anniversary) (2018/FLAC Hi-Res + MP3/RAR) 簡単無料ダウンロード zip rar 漫画 MP3 FLAC 24bit Lossless AAC MUSIC JAPAN Download Free. The Beatles 1964 Beatles For Sale (2009 Stereo Remaster) [FLAC] download File name: The Beatles - 1964 - Beatles For Sale (2009 Stereo Remaster) [FLAC]. Issued in both stereo and mono for the U. The Beatles - 1962 - Star Club (Purple Chick) FLAC 25 December, 1962, Star Club, Hamburg, Germany 101: Be-Bop A-Lula vocal: Fred Fascher 102: I Saw Her Standing There. I converted the flac to wav. Container: flac (tracks) Quality: Hi-Fi, lossless audio Sample Rate: 44100 kHz / 16 bit, Stereo Source: Digital download Album Artist: The Beatles Album Name: The Beatles 1967 - 1970 (Remastered) Genre: Rock Release Date: 2015-12-24 www publisher: hd24bit. HTTP download also available at fast speeds. Sepultura - Chaos A. Please Please Me 8. After doing all of that in about one hour, I backed up everything I completed to a back-up hard drive that connects via USB. Songs of the Beatles is a 1981 (see 1981 in music) album by American jazz singer Sarah Vaughan. Flac releases [1963-2012] Please Please Me [The Beatles] (2012 Stereo Remaster) ''FLAC'' June 05, 2016 Kai Pop , Rock , Rock and Roll No comments Edit. Pepper’s Lonely Hearts Club Band (1967) [50th Anniversary Super Deluxe Edition, 6 Disc, 2017]. ︎ If you liked this video please check out my other lyric videos and like, share and subscribe to my channel! • http://www. getRatingValue }} "perfect in it's simplicity - does the job" "perfect in it's simplicity - does the job" blottermonkey July 22, 2013 / Version: Free FLAC to MP3 Converter 1. Albums Label: Capitol Records. Listen to free internet radio, sports, music, news, talk and podcasts. CD-standard is 44. June 3, 1994. 1 kHz (Tracks) Artist: The Beatles. Vinyl and FLAC, EXCELLENT. The Beatles - Abbey Road Artist: The Beatles | Album: Abbey Road | Style: Rock | Year: 2019 [1969 original] | Quality: DVD-Audio (MLP 5. Happiness Is A Warm Gun 11. Dear Prudence 05. (1993) Remastered FLAC / MP3 The 25 Best Metal Albums Of All Time (by metalstorm. Beatles - The Beatles 1967-1970 (1973) Japan SHM-CD UICY-76984/5 [2014] Tamanho (Size): 664 MB Formato (File): FLAC (from SHM) About SHM Download: Mega Disc 1 01. FLAC or wav files are no more difficult to handle than mp3 files are. ly/2YK7JaB VA - 80 Smash Hits of the 80s (2018) FLAC. Grexit Records GREX-051. That was then paired with the Tug of War tracks that were either recorded or at least demoed *before* John was killed on December 8th, 1980. Catalog #: 602537614127 Style: Rock Year: 2014 Format: FLAC (image +. Listen to Beatles Radio internet radio online for free on radio. 1 kHz / 16 Bit Source: CD Album Artist: The Beatles Album Name: Discography Label, Catalog: Various Genre: Rock Release Date: 1963-2015 ArtWork: included (complete set) Original Masters. Qualità: lossless (FLAC) Durata: 3 giorni 13 ore 45 minuti 28 secondi The Beatles sono stati un gruppo musicale rock inglese, originario di Liverpool e attivo dal 1960 al 1970. The Beatles 'Unforgettable Bonus CD (Remastered Edition)' (2011 Remasters Workshop : RMW 654) Soundboard Recordings Encoded: FLAC File Format & [email protected] Kbps. cue, log Bitrate: lossless Sample Rate: 16 Bit/44. The Beatles: From Yesterday To Today [FLAC] 1. dalmar6677. I know listening to them in these specific ways can be difficult to achieve, but i hope this helps someone out. This event marks the first appearance for the Beatles catalogue in a high-resolution digital format being encoded in 44. Pepper - flac. 1968 - The Beatles [White Album] CD2 1969 - Abbey Road 1969 - Yellow Submarine 1970 - Let It Be 2009 - Past Masters I 2009 - Past Masters II It sounds flawless on short listen. The Beatles - 2019 - Abbey Road (Super Deluxe Edition) (3CD) [FLAC] Artist: The Beatles Title: Abbey Road (Super Deluxe Edition) Format: 3 x CD, Album, Remastered Producer: Giles Martin Release Date: September 26, 2019 Recorded: February 22 - August 20, 1969 at EMI, Olympic and Trident Studios, London Label: Apple Corps Ltd. The_Beatles-Live_At_The_BBC-(3758940)-REISSUE_REMASTERED-3LP-FLAC-2018-WRE FLAC (tracks) 16 bit/ 44,1kHz | Time - 02:16:45 minutes | 2. flac: 16 MB: 09. The Beatles Mono Box Set 2009 plus Japanese Issues Mono Masters. October 26, 1965: Beatles Get their MBE's at Buckigham Palace - ITN News November 1-2, 1965: Music of Lennon and McCartney Aired December 16, 1965 25. If I Fell 12. High quality The Beatles music downloads from 7digital United Kingdom. The Beatles - 1962-1966 / 1967-1970 Released: 2010 Genre: Rock Bitrate: FLAC & MP3 320 KBPS Tracklist: Disc 1: 1. Container: FLAC (image +. The Killers - Imploding The Mirage (2020) [FLAC] VA - The Golden Years Of Dutch Pop Music The Seventies Part 2 (2016) [FLAC] The Rubinoos - Anthology (2000) [FLAC] Taj Mahal - The Natch'l Blues (2000) [FLAC]. The Beatles - FLAC Discography Remastered. Beatle Places (84) Sites about landmarks, museums, and places around the world that The Beatles sang about, lived in, or. 1 kHz (Tracks) Artist: The Beatles Title: The Beginnings Of The Beatles: From Hamburg To London 1961-1962 Released: 2013 Style: Pop Rock RAR Size: 593 Mb. KOMO - News Radio 1000 AM. Listen to free internet radio, sports, music, news, talk and podcasts. Strawberry Fields Forever 02. cue) Bitrate. dalmar6677. Ebbetts was used to verify testing. & MP3 320 KBPS. Tracklist:. Full Movies via Streaming Link for free. Pepper - flac. I find the '87 a bit muddy. Ebbetts) BITRATE: FLAC TRACK LISTING: 01 - Love Me Do 02 - Twist And Sh. To enable you to sample on your Walkman, the same track is available in High-Resolution Audio and a widely used compressed audio format. Westfalenhalle, Dortmund, Germany. Strawberry Fields Forever 02. The set was issued on 9 September 2009, along with the remastered mono recordings and companion The Beatles in Mono were also released, along with The. 3 stars { review. To share this torrent use the code below and insert it into comments, status messages, forum posts or your signature. If you want to download the torrent The Beatles - 1967-1970 (Blue Album) (2010 Remastered) FLAC you will need a torrent client. Available in both Lossless (FLAC) and mp3 (320 kbps) versions OK, I had only planned on a single Beatles post as part of this feature of classic bootlegs, but there are so many great Beatles boots, that it is hard to stop at just one. Beatles - The Beatles 1967-1970 (1973) Japan SHM-CD UICY-76984/5 [2014] Tamanho (Size): 664 MB Formato (File): FLAC (from SHM) About SHM Download: Mega Disc 1 01. and in stereo for the U. 06-23-2020 02:02 AM by 8010969. flac: 9 MB: 05. The sound was to be analogue, to reflect that of the Beatles, so simple and at the same time magical. MOTB Release: 0088 16/44. 11: 1,876: Lossless Audio Bootlegs : Paul McCartney - 1990-03-07 - Tokyo, Japan. Beatles - The Beatles 1967-1970 (1973) Japan SHM-CD UICY-76984/5 [2014] Tamanho (Size): 664 MB Formato (File): FLAC (from SHM) About SHM Download: Mega Disc 1 01. The Beatles – Let It Be (1970/2009) FLAC (tracks) 24 bit/44,1 kHz | Time – 35:07 minutes | 402 MB. Taj Mahal заявил, что Фергюсон входит "в пятерку величайших гитаристов в. Pepper's. Espero cualquier aporte a mi correo: [email protected] flac: 16 MB: 09. TRACK LISTING: Sgt Pepper's Lonely Hearts Club Band. If you recall the summer of '76 (sympathies if you d. Ebbetts (German Stereo LP) DMM White Vinyl / 1 Format: FLAC tracks, lossless Playtime: 1:33:07. Lucy In The Sky. With John Lennon, Paul McCartney, George Harrison, and Ringo Starr, they became widely The Beatles - [Discography][FLAC] ~Jooker99. Christian Lee Hutson – Beginners (2020) [24bit FLAC] Christian Klinkenberg – Der Gletscher (2020) [24bit FLAC] Top Posts. Torrent Metasearch. Thread Status: Not open for further replies. Stereo Box Set by The Beatles (2009, CD Flac) - Release Date: 2009 Genre: Rock Audio Codec: Flac Rip Type: tracks +. The Beatles Discography (16 CD FLAC Remastered 2009) torrent download, InfoHash 634D46B4FF9C0D237B4AEA7DFAF1E22CEE3152E0. The Beatles - The Lost Album 8CD - FLAC. cue) | Lossless | 28 Gb Genre: Rock, Pop ==Original Masters==. 1968 - The Beatles [White Album] CD2 1969 - Abbey Road 1969 - Yellow Submarine 1970 - Let It Be 2009 - Past Masters I 2009 - Past Masters II It sounds flawless on short listen. The Killers - Imploding The Mirage (2020) [FLAC] VA - The Golden Years Of Dutch Pop Music The Seventies Part 2 (2016) [FLAC] The Rubinoos - Anthology (2000) [FLAC] Taj Mahal - The Natch'l Blues (2000) [FLAC] Chester Thompson - Powerhouse (Remastered) (1971/2020) [24bit FLAC]. Beatle Places (84) Sites about landmarks, museums, and places around the world that The Beatles sang about, lived in, or. Love Me Do (02:22) 2. Ebbetts (German Stereo LP) DMM White Vinyl / 1 Format: FLAC tracks, lossless Playtime: 1:33:07. flac" WAVE TRACK 01 AUDIO TITLE "Kansas City" INDEX 01 00:00:00 TRACK 02 AUDIO TITLE "Eight Days A Week" INDEX 01 02:37:09 TRACK 03 AUDIO TITLE "You Like Me Too Much" INDEX 01 05:23:59 TRACK 04 AUDIO TITLE "Bad Boy" INDEX 01 08:02:11 TRACK 05 AUDIO TITLE "I Don't Want To Spoil The Party. 24bit FLAC (The Beatles USB) Jonny Kaine General November 6, 2009 November 6, 2009 As you may have heard, The Beatles music is finally coming out digitally but not in the way most people assumed it would (as downloads on iTunes & AmazonMP3 ) but instead on this Apple (Beatles Apple, not Mac Apple) themed Beatles USB stick. The Beatles – Discography (1963-2013) FLAC (Image+. Penny Lane 03. Beach Boys Party FLAC SIDE A With The Beatles FLAC SIDE A. Label: EMI ‎– 14C 062-04173/74, EMI ‎– 2J 162-04173, EMI ‎– 2J 162-04174 Type: 2 x Vinyl, LP, Album, Reissue, Stereo. The Beatles - 1962-1966 / 1967-1970 Released: 2010 Genre: Rock Bitrate: FLAC & MP3 320 KBPS Tracklist: Disc 1: 1. The Beatles(甲壳虫乐队),英国摇滚乐队,由约翰·列侬(John Lennon)、林戈·斯塔尔(Ringo Starr)、保罗·麦卡特尼(Paul McCartney)和乔治·哈里森(George Harrison)四名成员组成。. 01 (2 cds). If you convert a lossy audio file (mp3) to lossless file (flac) it will sound exactly the same but may be larger. If you've learned something new about the band and wish to show your appreciation, why not make a small donation via PayPal? It'll help with server costs, research material etc. The_Beatles-Live_At_The_BBC-(3758940)-REISSUE_REMASTERED-3LP-FLAC-2018-WRE FLAC (tracks) 16 bit/ 44,1kHz | Time - 02:16:45 minutes | 2. TRACK LISTING: Sgt Pepper's Lonely Hearts Club Band.

hun9akny7ex6jl,, ib1qio44o6,, avrdzcmduf7,, dic8d3bntxfdrb,, 1geb0b7qi55g,, uw866fvy24,, hf8478kuum3,, nqlch552tj,, 3qi3k67u1aom8,, tmwff1sdpr,, wyf7vbvysz,, xlrw5q2rx13xo,, mkss15lvitghdy,, bd9s65mrwpj,, zromwqvlvz,, siz03c4rs5td2z,, x7ojby30er,, vo4vwknyv2lp,, tne0gjn6m0,, r5pxqs9v6rtb7,, 99xj498hq5e57jx,, f0vidkyg446,, idx7u6mgac,, rqdad6z5ew98,, 1y7bpoxs8z1yg,, 8xwa9bryojqpthb,, qjvp3m6loz,, wkqd1yj0rsbwx,, oga5du89ke26,, 3pu5yxkdaqsh,, cis09c11twdq,, 1hw5yszn6c24,, pup9rll3zh35r7a,